<?xml version="1.0" standalone="no"?>
<!DOCTYPE svg PUBLIC "-//W3C//DTD SVG 1.1//EN" "http://www.w3.org/Graphics/SVG/1.1/DTD/svg11.dtd">
<svg xmlns="http://www.w3.org/2000/svg">
<defs >
<font id="NanumGothic" horiz-adv-x="463" ><font-face
    font-family="NanumGothicExtraBold"
    units-per-em="1000"
    panose-1="2 13 9 4 0 0 0 0 0 0"
    ascent="920"
    descent="-230"
    alphabetic="0" />
<glyph unicode=" " horiz-adv-x="280" />
<glyph unicode="!" horiz-adv-x="424" d="M281 159Q281 142 278 138T261 134H174Q162 134 159 138T155 159L144 685Q143 707 145 713T164 719H272Q288 719 290 713T293 685L281 159ZM219 -70Q185 -70 163 -49T141 5Q141 37 163 58T219 80Q253 80 275 59T298 5Q298
-28 275 -49T219 -70Z" />
<glyph unicode="&quot;" horiz-adv-x="430" d="M104 467Q95 467 91 470T87 484V690Q87 707 104 707H179Q196 707 196 690V484Q196 473 193 470T179 467H104ZM251 467Q242 467 238 470T234 484V690Q234 707 251 707H326Q343 707 343 690V484Q343 473 340 470T326 467H251Z" />
<glyph unicode="#" horiz-adv-x="606" d="M474 378L462 288H529Q547 288 551 284T555 262V202Q555 182 552 178T529 173H447L422 -25Q420 -42 417 -44T396 -47H320Q303 -47 300 -43T298 -22L323 173H260L236 -23Q234 -38 230 -42T209 -47H138Q117 -47 114 -42T112
-20L138 173H60Q41 173 37 176T33 200V263Q33 284 37 286T60 289H153L164 379H88Q69 379 65 383T61 405V465Q61 485 64 489T88 494H179L206 699Q208 710 211 712T231 714H307Q321 714 326 712T329 695L303 494H365L393 697Q395 709 398 711T420 714H489Q509 714
513 712T515 691L489 494H557Q576 494 580 490T584 467V404Q584 386 580 382T557 378H474ZM276 288H335L347 378H288L276 288Z" />
<glyph unicode="$" horiz-adv-x="606" d="M479 -2Q460 -22 429 -39T363 -64V-123Q363 -135 359 -138T345 -142H267Q257 -142 253 -139T249 -123V-67Q208 -63 168 -54T97 -34Q90 -32 87 -28T85 -15L94 77Q95 85 99 87T116 85Q151 74 184 66T249 52V302Q162 353
118 401T73 515Q73 551 85 583T121 642T176 687T249 715V773Q249 784 252 788T267 792H345Q356 792 359 788T363 773V721Q395 718 421 712T466 699Q480 694 481 690T481 675L465 599Q462 584 458 581T440 582Q399 598 363 602V380Q461 323 500 269T540 152Q540
107 524 68T479 -2ZM413 148Q413 167 400 189T363 233V62Q413 87 413 148ZM198 517Q198 495 212 478T249 444V592Q226 581 212 563T198 517Z" />
<glyph unicode="%" horiz-adv-x="1090" d="M951 -1Q926 -33 892 -47T811 -62Q761 -62 727 -46T670 -2T637 65T627 149Q627 193 637 232T669 300T726 347T811 364Q860 364 894 347T951 301T984 232T995 149Q995 101 985 64T951 -1ZM407 -62Q402 -72 395 -74T377
-76H287Q273 -76 268 -72T270 -52L701 728Q706 736 710 738T724 740H828Q845 740 848 735T844 714L407 -62ZM811 243Q782 243 768 222T754 149Q754 112 766 84T811 55Q838 55 852 76T866 149Q866 200 852 221T811 243ZM437 366Q412 334 378 320T297 305Q247 305
213 321T156 365T123 432T113 516Q113 560 123 599T155 667T212 714T297 731Q346 731 380 714T437 668T470 599T481 516Q481 468 471 431T437 366ZM297 610Q268 610 254 589T240 516Q240 479 252 451T297 422Q324 422 338 443T352 516Q352 567 338 588T297 610Z"
/>
<glyph unicode="&amp;" horiz-adv-x="727" d="M586 -47Q575 -47 571 -43T560 -33L512 20Q468 -23 412 -42T298 -61Q250 -61 205 -48T124 -8T67 62T46 161Q46 231 88 288T194 382Q181 398 168 416T145 455T128 498T121 545Q121 591 141 625T193 683T263 718T339
730Q376 730 410 719T471 685T514 629T530 552Q530 495 495 441T388 348L508 215Q521 241 528 280T536 354Q536 369 539 374T556 379H640Q657 379 660 376T663 355Q663 327 659 295T645 232T624 171T597 120L720 -22Q728 -32 726 -39T709 -47H586ZM336 616Q298
616 277 597T255 546Q255 529 267 501T309 442Q324 449 339 459T368 482T389 511T398 547Q398 573 382 594T336 616ZM275 288Q258 279 242 266T212 236T190 202T182 166Q182 142 191 123T217 90T255 69T302 62Q330 62 365 75T427 114L275 288Z" />
<glyph unicode="&apos;" horiz-adv-x="303" d="M104 469Q95 469 92 472T89 486V690Q89 700 92 703T104 707H215Q224 707 227 704T230 690V486Q230 475 227 472T215 469H104Z" />
<glyph unicode="(" horiz-adv-x="363" d="M265 -187Q258 -187 254 -186T244 -178Q160 -66 112 56T63 302Q63 425 111 546T244 780Q249 786 252 788T263 791H334Q349 791 350 787T345 769Q279 648 240 530T201 302Q201 193 238 72T346 -168Q352 -178 350 -182T334
-187H265Z" />
<glyph unicode=")" horiz-adv-x="363" d="M35 -187Q21 -187 19 -183T23 -168Q93 -50 130 71T168 302Q168 411 129 529T24 769Q17 782 18 786T35 791H106Q114 791 117 789T125 780Q209 667 257 546T306 302Q306 178 258 56T125 -178Q120 -185 116 -186T104 -187H35Z" />
<glyph unicode="*" horiz-adv-x="606" d="M114 339Q98 344 95 351T98 375L121 435Q129 454 136 458T158 455L253 411L245 515Q244 533 249 538T275 544H337Q358 544 364 538T369 514L361 409L458 447Q475 455 481 451T494 428L512 369Q519 347 516 341T495 330L394
307L466 229Q477 215 475 208T457 188L407 151Q390 138 381 139T363 156L310 247L250 154Q240 139 233 139T211 149L159 186Q141 199 141 207T151 229L219 309L114 339Z" />
<glyph unicode="+" horiz-adv-x="654" d="M392 267V66Q392 54 388 51T373 47H285Q275 47 271 50T266 66V267H66Q47 267 47 286V367Q47 386 66 386H266V585Q266 604 285 604H373Q392 604 392 585V386H591Q603 386 606 382T610 367V286Q610 276 607 272T591 267H392Z" />
<glyph unicode="," horiz-adv-x="303" d="M181 -179Q178 -187 171 -190T157 -194H59Q53 -194 48 -190T45 -178L91 6Q93 11 98 17T114 24H237Q249 24 251 17T251 3L181 -179Z" />
<glyph unicode="-" horiz-adv-x="363" d="M62 275Q57 275 53 278T49 287V387Q49 392 53 395T62 399H324Q330 399 333 396T337 387V287Q337 282 334 279T324 275H62Z" />
<glyph unicode="." horiz-adv-x="303" d="M158 -134Q120 -134 94 -108T68 -44Q68 -6 94 20T158 46Q196 46 222 20T248 -44Q248 -82 222 -108T158 -134Z" />
<glyph unicode="/" horiz-adv-x="375" d="M132 -110Q128 -119 123 -121T109 -124H7Q-4 -124 -9 -120T-11 -103L248 714Q252 725 264 725H373Q396 725 390 705L132 -110Z" />
<glyph unicode="0" horiz-adv-x="606" d="M316 -70Q249 -70 200 -42T120 39T73 164T58 328Q58 368 62 413T76 502T105 586T152 658T221 707T316 726Q370 726 410 708T478 658T525 587T553 502T568 412T572 328Q572 238 557 165T511 40T431 -41T316 -70ZM316 596Q291
596 269 583T231 539T205 456T195 328Q195 251 204 200T230 117T269 73T316 60Q341 60 363 73T401 117T427 199T437 328Q437 404 428 455T402 538T363 583T316 596Z" />
<glyph unicode="1" horiz-adv-x="606" d="M274 -59Q263 -59 259 -55T255 -38V532L194 474Q178 459 169 471L110 538Q104 545 106 550T118 564L272 708Q283 717 296 717H362Q384 717 388 712T392 682V-38Q392 -49 388 -54T373 -59H274Z" />
<glyph unicode="2" horiz-adv-x="606" d="M78 -59Q64 -59 58 -56T52 -39V32Q52 43 57 50T69 66L215 242Q296 340 332 402T368 501Q368 542 347 566T285 594Q247 598 208 586T121 547Q107 539 102 541T94 553L76 641Q74 649 76 654T91 667Q110 680 134 690T183
708T234 719T279 723Q327 723 369 709T443 668T492 599T510 504Q510 457 490 410T441 319T379 234T318 160Q301 138 278 112T235 64H499Q514 64 517 59T521 40V-35Q521 -50 517 -54T499 -59H78Z" />
<glyph unicode="3" horiz-adv-x="606" d="M535 165Q535 114 517 70T462 -6T372 -57T248 -75Q206 -75 158 -68T74 -46Q60 -41 57 -34T56 -16L66 64Q68 78 73 81T95 79Q119 71 150 63T205 53Q239 50 273 54T334 71T377 109T394 169Q394 190 384 210T354 247T303
273T231 283H177Q164 283 161 287T157 303V385Q157 399 160 402T177 406H229Q250 406 275 412T323 431T361 463T377 510Q377 548 351 574T270 600Q235 600 195 590T123 566Q109 560 101 561T91 577L81 660Q79 670 82 675T101 686Q143 703 188 714T276 726Q320 726
364 714T443 678T499 615T521 524Q521 495 511 468T482 418T438 376T382 345Q458 316 496 266T535 165Z" />
<glyph unicode="4" horiz-adv-x="606" d="M482 109V-37Q482 -54 479 -58T458 -63H375Q358 -63 355 -58T351 -37V109H46Q32 109 28 112T23 129V200Q23 211 28 218T38 234Q114 351 189 470T344 704Q349 712 354 714T370 717H462Q480 717 481 711T482 694V232H564Q579
232 582 229T586 209V131Q586 114 582 112T564 109H482ZM173 232H351V507L173 232Z" />
<glyph unicode="5" horiz-adv-x="606" d="M469 1Q432 -33 380 -49T271 -65Q253 -65 231 -63T186 -56T143 -45T108 -32Q100 -28 98 -25T95 -11V83Q95 95 99 98T114 97Q129 91 149 86T191 75T236 67T279 64Q338 64 375 99T413 194Q413 250 383 286T279 322Q250 322
215 316T149 298Q140 294 131 292T115 290T104 299T100 323L105 694Q105 709 111 713T134 717H497Q509 717 512 713T516 697V614Q516 603 513 598T497 593H237L233 430Q250 434 268 435T304 437Q355 437 399 422T477 377T529 304T548 204Q548 76 469 1Z" />
<glyph unicode="6" horiz-adv-x="606" d="M308 -66Q185 -66 122 27T59 305Q59 389 76 465T132 599T235 691T394 725Q408 725 425 724T460 720T493 715T521 708Q531 704 532 699T534 686L530 591Q529 580 524 579T504 582Q487 587 474 590T448 595T422 597T390
598Q306 598 260 545T204 402Q225 427 260 442T327 457Q375 457 418 440T492 389T542 309T561 204Q561 147 544 98T493 12T413 -45T308 -66ZM319 333Q262 333 230 299T198 206Q198 174 207 147T231 101T266 70T310 58Q361 58 394 95T428 199Q428 263 399 298T319
333Z" />
<glyph unicode="7" horiz-adv-x="606" d="M532 604Q499 515 467 434T402 274T338 119T273 -39Q268 -53 264 -56T245 -59H148Q131 -59 127 -54T131 -29L375 583H82Q69 583 64 587T59 607V688Q59 704 63 708T82 712H505Q522 712 528 708T534 687V616Q534 610 532 604Z" />
<glyph unicode="8" horiz-adv-x="606" d="M306 -83Q261 -83 214 -69T128 -26T65 46T40 148Q40 185 53 214T86 268T133 310T185 344Q160 361 138 381T99 423T72 471T62 525Q62 571 82 609T135 675T213 717T306 732Q356 732 400 719T477 679T529 615T548 528Q548
475 514 432T424 345Q454 326 481 306T528 263T561 212T573 148Q573 89 550 46T488 -26T403 -69T306 -83ZM306 609Q286 609 268 603T235 584T211 556T202 519Q202 502 213 484T241 451T275 423T307 404Q322 410 339 424T372 455T398 490T409 522Q409 539 402 555T380
583T347 602T306 609ZM307 274Q286 267 264 257T223 231T193 194T181 146Q181 124 192 105T220 73T260 51T306 43Q331 43 354 50T394 71T421 104T432 146Q432 162 422 180T394 216T355 249T307 274Z" />
<glyph unicode="9" horiz-adv-x="606" d="M307 724Q430 724 493 631T556 353Q556 269 539 193T483 59T380 -33T221 -67Q207 -67 190 -66T155 -63T122 -57T94 -50Q84 -46 83 -41T81 -28L85 67Q86 78 91 79T111 76Q128 71 141 68T167 63T193 61T225 60Q309 60 355
113T411 256Q390 231 355 216T288 201Q240 201 197 218T123 269T73 349T54 454Q54 511 71 560T122 646T201 703T307 724ZM296 325Q353 325 385 359T417 452Q417 483 408 510T384 557T349 588T305 600Q254 600 221 563T187 459Q187 395 216 360T296 325Z" />
<glyph unicode=":" horiz-adv-x="315" d="M158 468Q122 468 97 492T72 552Q72 587 97 612T158 637Q194 637 218 612T243 552Q243 517 219 493T158 468ZM158 13Q122 13 97 37T72 97Q72 132 97 157T158 182Q194 182 218 157T243 97Q243 62 219 38T158 13Z" />
<glyph unicode=";" horiz-adv-x="315" d="M158 469Q140 469 125 475T99 493T81 520T74 553Q74 588 98 613T158 638Q194 638 219 613T244 553Q244 518 219 494T158 469ZM168 -65Q165 -73 159 -75T146 -78H52Q47 -78 44 -75T43 -65L91 120Q93 126 97 131T113 137H226Q239
137 240 131T239 118L168 -65V-65Z" />
<glyph unicode="&lt;" horiz-adv-x="569" d="M200 309Q194 301 200 294L497 -12Q505 -20 507 -25T509 -47V-167Q509 -192 502 -193T475 -173L83 239Q75 248 74 251T72 265V335Q72 347 73 351T83 364L475 776Q495 797 502 796T509 770V650Q509 634 507 629T497
615L200 309Z" />
<glyph unicode="=" horiz-adv-x="680" d="M61 369Q56 369 53 372Q49 376 49 381V473Q49 477 52 480L55 483Q55 483 59 485H61H599Q602 485 604 483Q605 483 605 483T607 482Q609 480 609 479Q610 478 610 477Q611 475 611 473V381V379Q611 378 610 377Q610 375
609 375Q607 372 604 370Q603 370 603 370T601 369H599H61ZM61 166Q59 166 55 168Q54 168 53 169L52 170Q49 173 49 178V270V272Q49 274 51 276Q51 277 53 279L59 282H61H599Q605 282 609 276Q611 274 611 272V270V178Q611 173 608 170Q604 166 599 166H61Z" />
<glyph unicode="&gt;" horiz-adv-x="569" d="M61 615Q53 623 51 628T49 650V770Q49 795 56 796T83 776L475 364Q483 356 484 352T486 335V265Q486 254 485 251T475 239L83 -173Q63 -194 56 -193T49 -167V-47Q49 -31 51 -26T61 -12L358 294Q364 301 358 309L61 615Z" />
<glyph unicode="?" horiz-adv-x="555" d="M465 534Q465 486 453 450T412 376Q382 336 362 307T330 252T312 202T307 150Q307 137 303 133T286 128H202Q191 128 186 132T181 150Q181 211 201 264T265 371Q300 415 316 449T332 519Q332 557 308 578T249 599Q205
599 170 592T103 574Q92 570 89 572T86 585V684Q86 691 88 694T99 701Q118 709 139 714T181 723T220 728T254 730Q299 730 337 716T404 675T449 613T465 534ZM238 -71Q206 -71 184 -49T162 6Q162 36 184 59T238 83Q253 83 267 77T292 60T309 35T316 6Q316 -26 293
-48T238 -71Z" />
<glyph unicode="@" horiz-adv-x="872" d="M839 399Q839 362 831 329T810 268T780 217T746 178Q664 99 571 99Q546 99 524 115T492 163Q480 149 464 138T429 120T393 108T361 104Q321 104 291 117T242 152T213 206T203 274Q203 328 222 378T275 467T355 529T456
552Q488 552 518 536T562 494L576 541H652Q614 580 559 601T444 622Q387 622 336 601T245 540T184 448T161 332Q161 258 184 202T246 107T338 50T450 30Q497 30 532 36T594 54T640 81T674 116H819Q765 21 673 -29T446 -79Q359 -79 284 -50T153 34T66 163T34 330Q34
417 66 492T153 621T284 707T445 738Q527 738 599 711T724 638T808 530T839 399ZM461 450Q433 450 410 433T370 388T344 331T334 273T344 229T376 211Q404 211 428 228T471 270T499 327T510 387Q510 416 498 433T461 450ZM715 389Q715 418 708 444T688 493Q668
437 649 386T610 274Q604 255 602 244T600 227T603 220T608 218Q625 218 644 232T678 269T704 324T715 389Z" />
<glyph unicode="A" horiz-adv-x="727" d="M613 -55Q602 -55 596 -53T585 -38L522 127H211L148 -38Q143 -50 138 -52T121 -55H24Q8 -55 3 -50T4 -30L295 698Q302 715 319 715H416Q429 715 433 712T442 697L731 -30Q737 -45 733 -50T711 -55H613ZM258 250H475L367
533L258 250Z" />
<glyph unicode="B" horiz-adv-x="606" d="M98 -55Q89 -55 84 -53T79 -37V693Q79 704 81 709T98 715H276Q332 715 377 703T455 665T504 602T522 512Q522 487 515 463T493 417T459 378T414 348Q444 337 467 319T507 279T532 231T541 181Q541 67 469 6T251 -55H98ZM215
594V401H259Q295 401 319 409T357 431T378 463T384 504Q384 522 379 538T362 567T328 586T276 594H215ZM213 289V66H253Q298 66 327 74T373 97T398 132T405 177Q405 201 398 221T372 257T322 280T243 289H213Z" />
<glyph unicode="C" horiz-adv-x="672" d="M606 -45Q577 -55 538 -62T444 -69Q358 -69 287 -41T164 40T85 166T56 330Q56 418 84 491T164 617T286 699T444 728Q489 728 531 723T609 706Q623 701 623 694T624 677L622 591Q622 574 614 572T588 575Q543 588 508 592T434
597Q378 597 334 578T258 523T211 438T194 330Q194 272 212 224T262 140T337 83T433 56Q481 51 525 59T597 78Q610 83 614 81T619 68L624 -22Q625 -33 621 -37T606 -45Z" />
<glyph unicode="D" horiz-adv-x="727" d="M534 34Q507 11 472 -5T399 -33T319 -49T237 -55H111Q100 -55 94 -54T85 -50T82 -41T81 -24V681Q81 693 81 700T85 710T94 714T113 715H286Q478 715 577 602Q619 553 639 488T660 332Q660 238 628 161T534 34ZM473 516Q444
553 397 573T283 593H217V68H250Q309 68 359 85T445 136T501 219T522 335Q522 452 473 516Z" />
<glyph unicode="E" horiz-adv-x="576" d="M123 -56Q99 -56 94 -50T89 -19V680Q89 703 93 709T121 715H477Q494 715 496 709T498 691V613Q498 599 495 595T477 590H225V400H464Q480 400 482 394T485 376V298Q485 284 482 280T464 275H225V69H487Q503 69 505 64T508
46V-32Q508 -45 506 -50T487 -56H123Z" />
<glyph unicode="F" horiz-adv-x="503" d="M214 588V402H445Q457 402 460 398T464 382V296Q464 285 461 281T445 276H214V-32Q214 -46 210 -50T194 -55H99Q87 -55 83 -51T78 -32V689Q78 705 82 710T100 715H458Q469 715 473 711T477 695V608Q477 597 474 593T458 588H214Z" />
<glyph unicode="G" horiz-adv-x="797" d="M683 -30Q665 -39 637 -46T578 -57T514 -64T454 -67Q370 -67 299 -41T176 36T95 161T65 330Q65 416 92 489T170 615T293 697T455 727Q514 727 564 720T657 699Q672 694 674 690T675 676L660 587Q658 572 652 572T630 576Q585
591 542 597T454 603Q399 603 354 583T275 527T224 440T205 330Q205 265 223 214T275 128T354 74T454 55Q491 55 521 57T568 65V250H415Q395 250 395 270V355Q395 375 416 375H672Q695 375 699 369T704 343V11Q704 -8 699 -15T683 -30Z" />
<glyph unicode="H" horiz-adv-x="727" d="M112 -55Q101 -55 97 -51T92 -35V695Q92 715 112 715H208Q228 715 228 695V403H503V695Q503 715 523 715H619Q639 715 639 695V-35Q639 -47 635 -51T619 -55H523Q512 -55 508 -51T503 -35V277H228V-35Q228 -47 224 -51T208
-55H112Z" />
<glyph unicode="I" horiz-adv-x="242" d="M79 -55Q68 -55 64 -51T59 -35V695Q59 715 79 715H175Q195 715 195 695V-35Q195 -47 191 -51T175 -55H79Z" />
<glyph unicode="J" horiz-adv-x="363" d="M258 1Q235 -34 195 -49T114 -64Q94 -64 72 -63T36 -57Q26 -54 23 -50T20 -34V58Q20 72 23 75T43 73Q68 67 107 67Q130 67 142 87T155 161V695Q155 715 173 715H270Q291 715 291 695V166Q291 119 285 75T258 1Z" />
<glyph unicode="K" horiz-adv-x="641" d="M487 -54Q476 -54 473 -52T463 -39L262 268L208 208V-35Q208 -47 203 -51T188 -55H92Q81 -55 77 -51T72 -35V695Q72 715 92 715H188Q208 715 208 695V399L443 700Q448 705 451 708T463 711H575Q610 711 589 686L342 374L615
-33Q630 -54 602 -54H487Z" />
<glyph unicode="L" horiz-adv-x="484" d="M102 -55Q81 -55 81 -33V697Q81 708 85 711T100 715H200Q211 715 214 712T217 697V71H458Q469 71 473 67T477 51V-35Q477 -46 473 -50T458 -55H102Z" />
<glyph unicode="M" horiz-adv-x="969" d="M762 -55Q749 -55 746 -52T743 -36V466L548 -33Q543 -44 539 -47T524 -50H437Q426 -50 422 -47T413 -33L218 466V-36Q218 -48 215 -51T199 -55H101Q88 -55 85 -52T82 -36V685Q82 706 86 710T111 715H223Q232 715 237 712T246
699L480 118L715 699Q721 715 740 715H849Q870 715 874 711T879 685V-36Q879 -48 876 -51T860 -55H762Z" />
<glyph unicode="N" horiz-adv-x="727" d="M530 -55Q518 -55 514 -53T504 -39L215 488V-31Q215 -47 212 -51T193 -55H102Q87 -55 83 -51T79 -31V690Q79 707 82 712T104 717H203Q215 717 219 714T230 698L515 175V693Q515 708 518 712T537 717H627Q645 717 648 712T651
693V-27Q651 -46 647 -50T625 -55H530Z" />
<glyph unicode="O" horiz-adv-x="787" d="M651 43Q604 -16 540 -44T395 -72Q305 -72 241 -40T135 48T74 176T54 329Q54 407 74 479T136 607T242 696T395 729Q483 729 547 696T653 607T715 479T735 329Q734 241 714 170T651 43ZM395 605Q343 605 306 582T244 519T208
431T196 329Q196 277 207 228T243 139T305 76T395 52Q446 52 483 76T545 139T580 228T592 329Q592 379 581 428T545 517T484 580T395 605Z" />
<glyph unicode="P" horiz-adv-x="577" d="M221 244V-35Q221 -49 217 -52T201 -56H105Q95 -56 90 -53T85 -35V694Q85 706 90 710T104 714H304Q359 714 404 700T482 657T531 585T549 481Q549 423 530 379T477 305T397 260T296 244H221ZM221 590V368H287Q347 368
379 395T411 482Q411 535 386 562T318 590H221Z" />
<glyph unicode="Q" horiz-adv-x="787" d="M574 -198Q560 -198 557 -197T545 -187L439 -77Q428 -78 416 -78T392 -79Q308 -79 244 -50T138 33T73 161T51 325Q51 406 70 476T131 603Q177 664 244 696T392 728Q477 728 540 696T652 603Q684 561 704 507T730 394T731
273T705 156T653 54T574 -24L714 -165Q747 -198 705 -198H574ZM540 517Q485 604 392 604Q340 604 303 580T241 516T206 426T194 325Q194 272 206 222T242 133T304 71T394 47Q439 47 475 67T536 125T575 213T589 325Q589 379 577 429T540 517Z" />
<glyph unicode="R" horiz-adv-x="622" d="M483 -55Q471 -55 468 -53T459 -39L317 246H225V-34Q225 -48 221 -51T206 -55H109Q99 -55 94 -52T89 -34V695Q89 707 94 711T108 715H309Q365 715 410 701T488 658T537 586T555 482Q555 410 524 360T442 280L604 -29Q612
-44 610 -49T593 -55H483ZM225 592V368H292Q352 368 385 395T418 483Q418 537 392 564T323 592H225Z" />
<glyph unicode="S" horiz-adv-x="545" d="M440 0Q414 -29 371 -47T283 -70Q259 -73 229 -71T169 -65T116 -55T80 -44Q69 -39 66 -35T65 -18L75 79Q76 89 79 91T95 88Q114 80 138 74T188 64T238 59T283 63Q325 73 343 96T361 162Q361 171 357 183T342 209T313 240T265
274Q210 308 172 337T109 394T73 453T61 519Q61 564 79 602T130 669T207 714T302 730Q353 730 389 723T450 704Q463 698 464 694T464 679L445 594Q443 585 438 583T418 586Q371 601 332 604T263 597T218 566T201 511Q201 487 222 462T292 408Q353 370 393 340T458
282T492 224T502 158Q502 110 486 71T440 0Z" />
<glyph unicode="T" horiz-adv-x="545" d="M341 589V-35Q341 -47 337 -51T322 -55H224Q214 -55 210 -51T205 -35V589H28Q17 589 13 593T8 608V695Q8 715 28 715H520Q533 715 536 711T540 695V608Q540 597 537 593T520 589H341Z" />
<glyph unicode="U" horiz-adv-x="727" d="M550 -12Q512 -42 466 -56T366 -71Q312 -71 267 -57T184 -12Q132 29 109 88T85 224V693Q85 702 88 708T105 715H201Q221 715 221 695V214Q221 141 258 98T366 54Q437 54 474 96T511 214V695Q511 715 531 715H627Q640 715
643 709T647 693V224Q647 149 623 89T550 -12Z" />
<glyph unicode="V" horiz-adv-x="666" d="M406 -40Q401 -51 398 -53T386 -55H285Q278 -55 275 -53T266 -40L0 691Q-6 708 -2 711T20 715H117Q128 715 132 713T140 699L334 127L532 699Q536 710 540 712T556 715H654Q671 715 674 711T671 691L406 -40Z" />
<glyph unicode="W" horiz-adv-x="1029" d="M807 -38Q803 -50 799 -52T783 -55H685Q673 -55 669 -52T661 -38L515 515L357 -38Q354 -49 350 -52T333 -55H236Q225 -55 221 -53T212 -38L1 692Q-3 706 -1 710T17 715H113Q123 715 128 714T135 704L292 154L442 700Q445
711 450 713T466 715H563Q574 715 579 713T588 700L737 154L894 702Q896 711 900 713T915 715H1011Q1025 715 1028 710T1027 692L807 -38Z" />
<glyph unicode="X" horiz-adv-x="666" d="M158 -45Q153 -52 150 -53T140 -55H23Q8 -55 5 -51T13 -30L254 344L24 692Q15 706 18 710T39 715H149Q158 715 162 713T170 705L333 454L496 705Q500 711 504 713T517 715H627Q644 715 647 711T642 692L412 344L653 -30Q664
-46 661 -50T643 -55H526Q519 -55 516 -54T508 -45L333 226L158 -45Z" />
<glyph unicode="Y" horiz-adv-x="666" d="M404 -35Q404 -47 400 -51T384 -55H288Q277 -55 273 -51T268 -35V274L11 691Q3 704 5 709T24 715H129Q144 715 152 702L340 388L522 702Q530 715 543 715H653Q670 715 670 708T663 689L404 274V-35Z" />
<glyph unicode="Z" horiz-adv-x="545" d="M41 -55Q22 -55 22 -35V36Q22 43 25 50T32 62L346 589H51Q40 589 36 593T32 609V695Q32 706 36 710T51 715H492Q505 715 508 711T512 695V614Q512 609 510 604T505 594L184 71H507Q518 71 522 67T526 51V-35Q526 -46 522
-50T507 -55H41Z" />
<glyph unicode="[" horiz-adv-x="378" d="M130 -195Q120 -195 117 -192T113 -175V780Q113 800 130 800H293Q304 800 307 796T311 780V695Q311 684 308 680T293 675H234V-70H293Q304 -70 307 -74T311 -90V-175Q311 -186 308 -190T293 -195H130Z" />
<glyph unicode="\" horiz-adv-x="1000" d="M796 291L719 -48Q717 -59 713 -61T695 -63H608Q595 -63 592 -61T586 -48L513 291H449L377 -48Q375 -58 372 -60T355 -63H267Q253 -63 250 -61T244 -48L166 291H54Q42 291 38 294T34 311V387Q34 400 38 403T54 407H140L88
645Q85 660 88 665T110 670H190Q200 670 205 669T212 655L265 407H361L411 655Q413 666 418 668T434 670H527Q538 670 543 668T550 655L602 407H700L752 655Q754 666 758 668T774 670H855Q871 670 873 666T873 645L824 407H906Q920 407 923 403T927 387V311Q927
299 924 295T906 291H796ZM469 407H496L482 490L469 407ZM315 142L340 291H290L315 142ZM651 141L676 291H625L651 141Z" />
<glyph unicode="]" horiz-adv-x="378" d="M71 -195Q60 -195 57 -191T53 -175V-90Q53 -79 56 -75T71 -70H130V675H71Q60 675 57 679T53 695V780Q53 791 56 795T71 800H234Q251 800 251 780V-175Q251 -188 248 -191T234 -195H71Z" />
<glyph unicode="^" horiz-adv-x="680" d="M500 228Q489 228 486 229T478 239L331 552L184 239Q181 232 177 230T162 228H63Q49 228 47 232T49 248L270 695Q273 701 276 703T290 705H371Q387 705 392 695L611 248Q616 237 613 233T595 228H500Z" />
<glyph unicode="_" horiz-adv-x="580" d="M34 -184Q23 -184 20 -181T17 -169V-83Q17 -74 20 -71T34 -68H545Q556 -68 559 -71T562 -83V-169Q562 -178 559 -181T545 -184H34Z" />
<glyph unicode="`" horiz-adv-x="252" d="M145 560Q137 560 132 561T120 568L2 699Q-8 710 -5 714T13 719H135Q145 719 148 718T156 710L237 582Q244 572 244 566T231 560H145Z" />
<glyph unicode="a" horiz-adv-x="545" d="M374 -57Q365 -57 363 -55T360 -43V0Q343 -27 305 -46T228 -65Q187 -65 149 -54T87 -18T48 41T34 120Q34 172 59 214T125 279T224 313T350 320Q344 399 282 407Q262 409 242 406T202 397T164 382T132 364Q111 350 102
350T93 370V453Q93 466 95 471T110 483Q140 498 180 511T276 524Q378 524 428 472T479 311V83Q479 70 479 55T479 23T480 -7T482 -33Q484 -53 480 -55T466 -57H374ZM360 219Q303 218 266 211T207 190T176 159T168 119Q168 87 187 70T240 52Q294 52 326 91T360 219Z"
/>
<glyph unicode="b" horiz-adv-x="606" d="M209 -38Q209 -49 206 -52T192 -56H99Q87 -56 83 -53T78 -35V752Q78 766 82 769T97 773H192Q204 773 207 770T210 752V473Q231 496 265 512T331 528Q385 528 427 508T499 449T545 357T561 234Q561 165 546 110T501 16T430
-43T332 -64Q314 -64 296 -59T262 -46T231 -27T209 -5V-38ZM317 408Q294 408 275 399T240 369T217 315T208 234Q208 188 217 155T242 100T276 68T317 57Q365 57 396 98T427 234Q427 324 397 366T317 408Z" />
<glyph unicode="c" horiz-adv-x="484" d="M449 -51Q438 -56 422 -60T386 -66T345 -69T305 -68Q242 -63 194 -39T112 23T62 114T45 227Q45 291 65 345T121 438T209 498T324 520Q353 520 387 516T451 502Q460 499 461 495T462 480L452 403Q450 391 446 387T426 388Q405
396 375 399T322 402Q253 400 216 353T178 227Q178 152 213 106T313 53Q345 48 376 51T432 63Q448 68 451 66T456 52L462 -25Q463 -37 461 -41T449 -51Z" />
<glyph unicode="d" horiz-adv-x="606" d="M407 -5Q399 -16 385 -27T355 -46T320 -59T284 -64Q174 -64 115 15T55 234Q55 302 71 356T116 449T188 507T285 528Q317 528 351 512T406 473V752Q406 766 409 769T424 773H519Q530 773 534 770T538 752V-35Q538 -49 534
-52T517 -56H424Q414 -56 411 -53T407 -38V-5ZM299 408Q249 408 219 366T189 234Q189 139 220 98T299 57Q320 57 339 67T374 99T398 154T408 234Q408 282 400 315T376 368T341 398T299 408Z" />
<glyph unicode="e" horiz-adv-x="545" d="M512 206Q511 194 507 188T490 181H177Q184 114 219 82T304 48Q350 46 384 57T451 88Q465 97 470 93T475 72V-3Q475 -14 473 -18T461 -29Q432 -49 388 -59T300 -69Q180 -69 111 8T41 227Q41 280 55 333T100 428T176 497T283
524Q346 524 389 501T460 439T500 349T512 239V206ZM286 408Q265 408 247 398T216 372T192 335T179 291H382Q382 311 376 332T358 369T328 397T286 408Z" />
<glyph unicode="f" horiz-adv-x="363" d="M349 660Q349 650 345 649T332 651Q318 657 306 659T278 659Q252 655 243 621Q241 613 240 597T239 561V511H323Q335 511 338 507T342 491V408Q342 397 339 393T323 388H239V-35Q239 -47 235 -51T220 -55H127Q116 -55
112 -51T108 -35V388H38Q19 388 19 408V491Q19 511 38 511H108V554Q108 596 114 637T138 709T186 759T265 780Q285 781 309 778T344 770Q351 767 353 764T354 752L349 660Z" />
<glyph unicode="g" horiz-adv-x="606" d="M276 -223Q236 -223 195 -215T115 -192Q105 -188 103 -184T101 -168L107 -81Q108 -69 112 -65T133 -69Q163 -84 202 -94T282 -102Q338 -100 374 -66T415 31Q389 1 351 -13T281 -26Q229 -25 187 -5T116 50T70 134T54 239Q54
370 113 444T282 519Q301 519 321 514T359 501T392 483T415 461V499Q415 516 431 516H523Q534 516 537 512T541 494V86Q541 -63 471 -143T276 -223ZM302 398Q252 398 221 363T190 241Q190 207 199 180T224 133T258 104T298 94Q346 94 378 133T410 242Q410 315 379
356T302 398Z" />
<glyph unicode="h" horiz-adv-x="606" d="M413 -55Q402 -55 398 -51T393 -35V283Q393 410 318 410Q276 410 249 394T210 348V-35Q210 -47 205 -51T190 -55H98Q87 -55 83 -51T79 -35V750Q79 770 98 770H190Q210 770 210 750V480Q236 502 267 515T326 529Q427 529
475 470T524 284V-35Q524 -47 520 -51T505 -55H413Z" />
<glyph unicode="i" horiz-adv-x="242" d="M126 591Q93 591 71 614T49 670Q49 703 70 726T126 750Q160 750 182 727T204 670Q204 637 182 614T126 591ZM75 -55Q66 -55 63 -51T59 -35V486Q59 498 62 502T75 506H174Q184 506 187 502T191 486V-35Q191 -47 188 -51T174
-55H75Z" />
<glyph unicode="j" horiz-adv-x="269" d="M196 -153Q180 -186 148 -202T81 -218Q71 -218 51 -217T20 -210Q13 -207 11 -204T9 -192V-119Q9 -109 11 -103T26 -102Q48 -110 65 -107T84 -89Q86 -80 86 -52T87 5V488Q87 508 105 508H202Q213 508 216 504T219 488V1Q219
-35 218 -58T214 -98T207 -127T196 -153ZM154 591Q121 591 99 614T77 670Q77 703 98 726T154 750Q188 750 210 727T232 670Q232 637 210 614T154 591Z" />
<glyph unicode="k" horiz-adv-x="520" d="M411 -55Q397 -55 392 -53T381 -41L243 177L203 130V-33Q203 -45 199 -49T183 -53H91Q80 -53 76 -49T72 -33V747Q72 767 91 767H183Q203 767 203 747V311L359 500Q364 506 368 508T381 510H479Q496 510 498 503T486 478L321
271L513 -29Q522 -42 521 -48T502 -55H411Z" />
<glyph unicode="l" horiz-adv-x="242" d="M78 -54Q69 -54 66 -50T62 -34V747Q62 759 65 763T78 767H177Q187 767 190 763T194 747V-34Q194 -46 191 -50T177 -54H78Z" />
<glyph unicode="m" horiz-adv-x="908" d="M717 -55Q706 -55 701 -51T696 -34V302Q696 342 674 366T619 391Q594 391 574 380T540 348T519 302T511 248V-35Q511 -55 492 -55H398Q387 -55 382 -51T377 -34V302Q377 349 359 370T305 391Q257 391 229 359T201 281V-35Q201
-47 197 -51T182 -55H89Q77 -55 73 -50T69 -34V357Q69 395 69 432T67 490Q65 501 69 505T89 510H182Q193 510 196 508T199 497V456Q221 479 252 496T316 514Q364 514 406 489T472 422Q485 441 502 458T538 488T580 509T627 517Q672 517 709 504T772 466T813 405T828
321V-35Q828 -47 824 -51T808 -55H717Z" />
<glyph unicode="n" horiz-adv-x="606" d="M209 -35Q209 -47 205 -51T190 -55H97Q85 -55 81 -50T77 -34V357Q77 395 77 434T75 493Q73 504 77 507T95 510H190Q201 510 204 508T207 497V459Q228 481 261 499T330 518Q430 518 476 461T523 295V-35Q523 -47 519 -51T504
-55H411Q391 -55 391 -34V275Q391 396 318 396Q267 396 238 363T209 273V-35Z" />
<glyph unicode="o" horiz-adv-x="606" d="M509 23Q472 -24 421 -47T306 -71Q240 -71 191 -47T108 17T57 112T40 226Q40 286 56 340T106 434T190 498T306 522Q372 522 422 498T505 434T556 340T573 226Q573 167 557 115T509 23ZM306 405Q273 405 248 390T207 349T182
292T173 226Q173 192 181 160T206 103T248 62T306 46Q340 46 365 61T406 102T431 160T439 226Q439 259 431 291T407 348T365 389T306 405Z" />
<glyph unicode="p" horiz-adv-x="606" d="M322 -79Q291 -79 259 -65T202 -22V-193Q202 -204 199 -208T183 -213H90Q79 -213 75 -209T71 -193V485Q71 499 76 503T93 508H183Q195 508 199 505T204 490V451Q213 463 227 474T258 494T294 508T333 513Q384 513 424
492T494 432T538 338T554 214Q554 149 538 95T492 3T419 -57T322 -79ZM310 391Q289 391 270 381T235 349T211 294T201 216Q201 169 209 136T232 82T267 52T310 42Q360 42 390 84T421 216Q421 310 390 350T310 391Z" />
<glyph unicode="q" horiz-adv-x="606" d="M281 -79Q227 -79 184 -58T111 2T65 95T49 214Q49 283 64 338T109 432T178 492T270 513Q289 513 308 508T345 495T376 475T399 451V490Q399 501 403 504T420 508H510Q521 508 526 504T532 485V-193Q532 -204 528 -208T513
-213H420Q408 -213 405 -209T401 -193V-22Q377 -51 345 -65T281 -79ZM293 391Q244 391 213 351T182 216Q182 126 212 84T293 42Q316 42 336 51T370 82T393 136T402 216Q402 261 393 294T368 348T334 380T293 391Z" />
<glyph unicode="r" horiz-adv-x="363" d="M344 385Q325 393 309 394T281 392Q257 384 243 366T221 324T211 274T209 224V-34Q209 -46 206 -50T191 -55H95Q84 -55 81 -51T78 -33V363Q78 395 77 430T76 488Q76 501 80 505T95 509H191Q206 509 206 493V455Q219 474
239 492T281 514Q302 518 322 517T354 507Q359 503 360 500T362 488V401Q362 390 358 385T344 385Z" />
<glyph unicode="s" horiz-adv-x="424" d="M328 -34Q302 -54 269 -62T199 -71Q180 -71 158 -69T116 -63T79 -54T53 -45Q42 -40 39 -37T36 -22L44 51Q45 63 49 66T64 65Q95 54 128 46T198 38Q234 38 251 56T268 101Q268 120 251 138T209 173T160 202T120 225Q87
245 65 276T42 350Q42 395 57 427T98 481T157 512T226 522Q244 522 264 520T303 513T338 504T363 495Q373 490 374 486T375 474L366 398Q364 386 359 385T343 388Q291 413 232 411Q200 410 186 396T171 355Q171 344 184 328T230 294Q261 277 286 262T324 237Q360
209 378 181T397 106Q397 62 380 27T328 -34Z" />
<glyph unicode="t" horiz-adv-x="363" d="M351 -48Q331 -57 303 -63T239 -69Q202 -68 172 -51T128 -8Q114 21 111 57T108 152V388H37Q18 388 18 408V491Q18 511 37 511H108V644Q108 664 128 664H220Q239 664 239 644V511H324Q336 511 339 507T343 491V408Q343
397 340 393T324 388H239V164Q239 128 239 106T241 76Q245 57 258 52T286 49T315 56T337 65Q345 69 349 66T354 51L363 -24Q364 -33 362 -38T351 -48Z" />
<glyph unicode="u" horiz-adv-x="606" d="M419 -57Q408 -57 405 -54T401 -43V-5Q392 -19 378 -30T346 -50T311 -63T277 -68Q179 -68 130 -10T81 155V487Q81 498 85 503T100 508H192Q204 508 208 502T212 486V172Q212 137 217 115T233 79T257 60T290 54Q334 54
364 88T395 196V487Q395 498 399 503T414 508H507Q519 508 522 501T526 485V84Q526 54 527 22T528 -36Q528 -49 526 -53T509 -57H419Z" />
<glyph unicode="v" horiz-adv-x="484" d="M308 -43Q306 -51 303 -53T289 -55H198Q190 -55 186 -53T180 -43L4 487Q-1 502 2 506T23 510H116Q126 510 129 508T135 498L245 138L355 498Q357 506 360 508T374 510H466Q483 510 486 506T485 487L308 -43Z" />
<glyph unicode="w" horiz-adv-x="848" d="M425 319L311 -43Q309 -51 306 -53T292 -55H196Q188 -55 184 -53T178 -43L7 487Q2 502 5 506T26 510H118Q128 510 131 508T137 498L246 134L358 498Q360 506 363 508T377 510H473Q484 510 487 508T492 498L604 134L713
498Q715 506 718 508T732 510H824Q841 510 844 506T843 487L672 -43Q670 -51 666 -53T654 -55H558Q547 -55 544 -53T539 -43L425 319Z" />
<glyph unicode="x" horiz-adv-x="510" d="M149 -43Q144 -51 141 -52T132 -54H19Q8 -54 7 -50T15 -31L184 240L26 485Q16 500 18 505T37 510H144Q156 510 162 500L255 347L348 500Q354 510 366 510H473Q490 510 492 505T484 485L326 240L495 -31Q504 -45 503 -49T491
-54H378Q373 -54 370 -53T361 -43L255 133L149 -43Z" />
<glyph unicode="y" horiz-adv-x="464" d="M268 -76Q242 -150 203 -182T110 -215Q99 -215 78 -214T37 -204Q26 -199 23 -196T20 -181L27 -99Q28 -90 33 -89T46 -90Q60 -95 74 -97T104 -99Q112 -98 119 -95T131 -83Q142 -60 151 -38T170 13L4 485Q-1 500 3 504T19
508H114Q123 508 126 506T133 492L232 174L331 492Q334 503 337 505T350 508H447Q461 508 463 503T461 484L268 -76Z" />
<glyph unicode="z" horiz-adv-x="484" d="M51 -54Q40 -54 36 -50T32 -34V40Q32 45 34 51T39 62L293 388H63Q44 388 44 408V490Q44 510 63 510H439Q451 510 454 506T458 490V409Q458 402 455 397T449 389L191 68H441Q453 68 456 64T460 48V-34Q460 -45 457 -49T441
-54H51Z" />
<glyph unicode="{" horiz-adv-x="315" d="M219 449Q219 401 195 366T143 305Q156 292 170 277T194 244T212 206T219 161V-8Q219 -40 220 -53T233 -77Q241 -84 256 -86T282 -86Q290 -84 294 -85T298 -99V-172Q298 -182 296 -185T282 -191Q262 -194 241 -194T195
-185Q150 -171 125 -131T100 -28V143Q100 155 99 171T94 202T83 231T64 252Q54 257 45 260T36 278V332Q36 346 43 348T59 355Q66 359 73 365T86 383T96 415T100 466V637Q100 700 125 740T195 794Q220 802 241 802T282 800Q293 798 295 795T298 781V708Q298 696
294 695T282 695Q271 697 256 695T233 686Q222 676 221 663T219 618V449Z" />
<glyph unicode="|" horiz-adv-x="252" d="M84 -167Q73 -167 69 -163T64 -147V746Q64 766 84 766H170Q190 766 190 746V-147Q190 -159 186 -163T170 -167H84Z" />
<glyph unicode="}" horiz-adv-x="315" d="M85 618Q85 650 84 663T71 686Q63 693 48 695T22 695Q14 693 10 694T6 708V781Q6 791 8 794T22 800Q42 803 63 803T109 794Q154 780 179 740T204 637V466Q204 435 208 415T218 383T231 365T245 355Q254 350 261 348T268
332V278Q268 264 259 261T240 252Q228 245 221 232T210 203T205 171T204 143V-28Q204 -91 179 -131T109 -185Q84 -193 63 -193T22 -191Q11 -189 9 -186T6 -172V-99Q6 -87 10 -86T22 -86Q33 -88 48 -86T71 -77Q82 -67 83 -54T85 -8V161Q85 185 92 205T109 244T133
277T161 305Q134 330 110 365T85 449V618Z" />
<glyph unicode="~" horiz-adv-x="660" d="M587 323Q561 283 524 260T440 237Q413 237 384 246T327 266T273 286T229 295Q208 295 184 277T139 233Q131 223 126 225T112 240L75 300Q70 307 71 312T74 322Q99 364 139 385T230 407Q256 407 286 399T344 381T395 363T434
354Q446 354 458 360T481 375T501 393T518 410Q526 418 530 419T543 410L588 347Q593 340 593 336T587 323Z" />
<glyph unicode="&#xa0;" horiz-adv-x="280" />
<glyph unicode="&#xa1;" horiz-adv-x="302" d="M231 657Q231 624 209 602T153 579Q119 579 97 601T74 657Q74 691 96 713T153 736Q187 736 209 714T231 657ZM96 497Q96 510 100 518T123 526H184Q202 526 206 523T210 497Q213 367 217 240T224 -16Q225 -43 221
-49T196 -55H110Q89 -55 85 -49T81 -16L96 497Z" />
<glyph unicode="&#xa2;" horiz-adv-x="940" d="M546 533Q516 544 481 544Q406 544 361 486T315 322Q315 265 328 220T367 146L546 533ZM739 256Q733 188 712 138T656 56T577 7T480 -9Q437 -9 401 2Q389 -24 376 -52T351 -105L270 -64L319 41Q265 85 233 158T201
322Q201 393 221 453T277 558T366 626T481 651Q509 651 538 646T592 631Q603 654 613 678T634 725L716 690L665 580Q690 554 707 518T731 430H619Q615 450 610 461Q568 370 529 282T447 102Q454 100 463 99T480 97Q546 97 581 135T626 256H739Z" />
<glyph unicode="&#xa3;" horiz-adv-x="940" d="M319 49Q333 49 342 60T358 90Q338 103 318 103Q308 103 301 96T293 77Q293 65 300 57T319 49ZM757 128Q746 83 734 51T703 -3T658 -35T594 -46Q562 -46 529 -29T448 23Q428 -9 397 -29T318 -49Q259 -49 222 -16T184
76Q184 104 194 126T223 165T265 191T318 200Q340 200 361 194Q359 211 356 227T347 260H212V351H320Q309 381 302 409T294 470Q294 565 346 617T502 670Q547 670 584 655T648 612T688 545T703 460H581Q581 519 561 543T502 568Q460 568 436 545T412 475Q412 445
418 417T438 351H709V260H465Q472 226 476 196T477 136Q493 123 509 111T541 88T570 72T594 66Q605 66 612 70T625 84T636 114T648 164L757 128Z" />
<glyph unicode="&#xa4;" horiz-adv-x="838" d="M638 301Q638 348 621 389T573 461T501 509T412 527Q365 527 324 510T253 462T205 390T187 301Q187 254 204 213T252 142T324 94T412 76Q459 76 500 93T572 141T620 213T638 301ZM821 581L692 467Q715 429 726 389T737
301Q737 253 723 209T684 126Q717 97 752 65T820 2L753 -75L618 50Q576 15 524 -4T412 -23Q356 -23 307 -6T215 43Q183 14 150 -17T85 -77L18 0L145 116Q117 155 102 201T87 301Q87 349 99 392T134 473Q106 499 75 526T17 579L90 651L203 549Q246 587 298 606T412
626Q475 626 529 605T627 544Q655 569 689 599T749 653L821 581Z" />
<glyph unicode="&#xa5;" horiz-adv-x="940" d="M783 667L653 441H740V350H603Q593 333 587 322T569 291H740V199H527V-41H407V199H194V291H366Q356 307 348 320T330 350H194V441H284Q252 496 219 554T154 667H286L411 446H532Q563 502 593 556T654 667H783ZM488
354H449L469 318L488 354Z" />
<glyph unicode="&#xa7;" horiz-adv-x="346" d="M204 299Q177 338 162 354T129 370Q118 370 118 359Q118 346 125 330T143 299Q167 263 180 247T208 231Q219 231 222 235T226 246Q226 258 219 272T204 299ZM327 257Q327 178 272 155Q289 129 296 104T304 48Q304
-28 269 -66T166 -104Q103 -104 67 -71T31 34H136Q136 2 144 -8T165 -18Q182 -18 188 -9T195 27Q195 85 146 132Q92 183 56 233T19 341Q19 389 33 415T80 451Q62 478 52 506T41 568Q41 711 174 711Q240 711 271 675T302 577H200Q200 612 191 621T170 631Q140 631
140 590Q140 555 158 529T209 472Q260 420 293 369T327 257Z" />
<glyph unicode="&#xa8;" horiz-adv-x="540" d="M56 659Q56 693 79 716T135 739Q168 739 191 716T214 659Q214 627 191 604T135 581Q119 581 105 587T80 604T63 629T56 659ZM324 659Q324 693 347 716T402 739Q436 739 459 716T482 659Q482 627 459 604T402 581Q386
581 372 587T347 604T330 629T324 659Z" />
<glyph unicode="&#xa9;" horiz-adv-x="855" d="M655 248Q646 187 627 145T578 76T512 37T430 25Q371 25 327 47T254 106T210 192T195 297Q195 354 210 404T254 491T328 549T430 571Q472 571 509 560T575 523T623 459T649 364H531Q523 413 497 436T430 459Q399
459 377 446T341 410T321 358T314 297Q314 264 320 235T341 184T377 149T430 136Q475 136 501 161T533 248H655ZM738 299Q738 366 715 422T651 520T554 584T431 608Q363 608 307 585T209 520T145 423T122 299Q122 233 145 177T209 79T306 14T431 -9Q497 -9 553
14T651 78T715 176T738 299ZM830 299Q830 212 800 140T717 15T590 -67T431 -97Q345 -97 272 -68T145 14T62 139T32 299Q32 386 62 459T145 584T271 666T431 696Q517 696 590 667T716 585T800 459T830 299Z" />
<glyph unicode="&#xaa;" horiz-adv-x="541" d="M298 527Q294 525 293 525T289 525Q262 520 246 515T220 505T208 494T205 481Q205 456 234 456Q269 456 283 469T298 506V527ZM446 254H95V349H446V254ZM417 393Q397 388 388 387T368 386Q335 386 320 405Q306 391
284 384T230 376Q179 376 148 401T117 481Q117 507 125 525T153 558T201 582T272 600Q282 602 290 607T298 621Q298 648 260 648Q216 648 216 602H129Q129 667 166 697T263 727Q290 727 312 722T350 704T376 670T385 616V466Q385 465 386 465Q390 465 402 468Q403
468 409 468T417 469V393Z" />
<glyph unicode="&#xab;" horiz-adv-x="940" d="M835 17L782 -53L319 271V332L782 655L835 585L432 301L835 17ZM624 14L570 -57L108 271V332L570 660L624 589L220 301L624 14Z" />
<glyph unicode="&#xac;" horiz-adv-x="940" d="M899 -156H806V64H41V155H899V-156Z" />
<glyph unicode="&#xad;" horiz-adv-x="410" d="M359 257H51V369H359V257Z" />
<glyph unicode="&#xae;" horiz-adv-x="940" d="M396 467V317H461Q555 317 555 393Q555 434 529 450T449 467H396ZM675 29H569L513 154Q493 194 473 216T432 239H396V29H308V546H457Q549 546 598 507T648 401Q648 350 618 314T535 260Q551 249 569 228T603 175L675
29ZM470 620Q331 620 232 521Q134 423 134 284Q134 146 232 46Q330 -51 470 -51Q610 -51 707 46Q805 146 805 284Q805 423 707 521Q609 620 470 620ZM470 -117Q306 -117 186 0Q68 118 68 284Q68 450 186 568Q304 685 470 685Q634 685 753 568Q871 450 871 284Q871
118 753 0Q634 -117 470 -117Z" />
<glyph unicode="&#xb0;" horiz-adv-x="446" d="M270 607Q270 627 256 640T223 654Q204 654 190 641T176 607Q176 587 190 573T223 559Q242 559 256 573T270 607ZM355 607Q355 580 345 556T316 514T274 485T223 474Q196 474 172 484T130 513T102 556T91 607Q91
634 101 658T130 700T172 728T223 739Q250 739 274 729T316 700T344 658T355 607Z" />
<glyph unicode="&#xb1;" horiz-adv-x="567" d="M532 11Q532 -11 509 -11H58Q35 -11 35 11V76Q35 98 58 98H509Q532 98 532 76V11ZM538 367Q538 344 515 344H338V164Q338 142 316 142H250Q228 142 228 164V344H53Q30 344 30 367V431Q30 453 53 453H228V632Q228
654 250 654H316Q338 654 338 632V453H515Q538 453 538 431V367Z" />
<glyph unicode="&#xb2;" horiz-adv-x="410" d="M293 490H117Q115 536 138 566T193 616Q227 635 227 664Q227 672 223 677T210 682Q199 682 192 673T185 639H121Q121 695 147 718T208 742Q244 742 268 723T292 664Q292 646 283 629T260 600Q238 581 217 567T195
546H293V490Z" />
<glyph unicode="&#xb3;" horiz-adv-x="428" d="M303 567Q303 528 276 508T212 488Q193 488 177 493T148 508T129 536T122 576H174Q174 555 183 546T213 537Q247 539 247 566Q247 589 215 593H193V638H215Q227 638 233 645T240 664Q240 673 232 679T212 686Q179
686 179 651H126Q126 692 149 714T212 737Q245 737 269 718T294 666Q294 652 289 642T272 622Q287 616 295 601T303 567Z" />
<glyph unicode="&#xb4;" horiz-adv-x="324" d="M295 728L113 500H35L138 728H295Z" />
<glyph unicode="&#xb6;" horiz-adv-x="605" d="M536 -108H430V620H380V-108H274V290Q175 299 122 357T69 502Q69 548 84 587T128 654T200 699T300 716H536V-108Z" />
<glyph unicode="&#xb7;" horiz-adv-x="290" d="M228 333Q228 296 204 273T142 249Q105 249 81 272T57 333Q57 370 80 394T141 418Q178 418 203 394T228 333Z" />
<glyph unicode="&#xb8;" horiz-adv-x="317" d="M272 -98Q272 -140 240 -171T150 -203Q126 -203 97 -192T42 -159L79 -98Q102 -115 116 -121T145 -128Q159 -128 169 -122T179 -104Q179 -93 173 -87T155 -80Q139 -80 120 -102L75 -76L129 42H212L193 -9Q230 -11
251 -35T272 -98Z" />
<glyph unicode="&#xb9;" horiz-adv-x="405" d="M249 492H182V633H143V693Q169 695 177 703T189 739H249V492Z" />
<glyph unicode="&#xba;" horiz-adv-x="541" d="M334 550Q334 598 317 621T269 645Q238 645 221 622T204 550Q204 502 221 479T269 456Q300 456 317 479T334 550ZM446 254H95V349H446V254ZM423 550Q423 463 380 419T269 375Q201 375 158 419T115 550Q115 637 158
681T269 725Q336 725 379 681T423 550Z" />
<glyph unicode="&#xbb;" horiz-adv-x="940" d="M620 271L157 -53L104 17L507 301Q407 372 306 443T104 585L157 655L620 332V271ZM831 271L369 -57L315 14L719 301Q619 373 517 446T315 589L369 660L831 332V271Z" />
<glyph unicode="&#xbc;" horiz-adv-x="737" d="M253 344H161V564H100V637Q119 638 131 641T151 651T163 671T170 707H253V344ZM667 558L132 -6L71 52L606 610L667 558ZM524 54V120Q514 105 503 88T476 54H524ZM661 -28H611V-108H524V-28H375V42L535 262H611V53H661V-28Z" />
<glyph unicode="&#xbd;" horiz-adv-x="705" d="M651 559L116 -5L54 52L589 611L651 559ZM648 -109H380Q381 -68 391 -40T418 10T455 48T499 79Q525 94 540 108T555 145Q555 173 522 173Q482 173 482 99H389Q389 179 424 220T519 261Q572 261 608 232T645 145Q645
117 636 97T610 59T573 28T530 0Q520 -6 514 -14T504 -27H648V-109ZM241 344H149V564H88V637Q107 638 119 641T139 651T151 671T158 707H241V344Z" />
<glyph unicode="&#xbe;" horiz-adv-x="746" d="M332 455Q332 424 321 401T292 363T249 341T198 333Q169 333 145 340T103 363T75 408T65 479H155Q155 444 165 431T198 418Q218 418 229 427T240 453Q240 470 231 481T202 492H165V566H201Q214 566 222 573T231 595Q231
609 221 616T196 624Q160 624 158 566H71Q71 637 105 673T196 709Q220 709 242 703T282 683T310 649T320 599Q320 580 315 564T296 536Q332 513 332 455ZM682 558L147 -6L84 52L620 610L682 558ZM661 -28H611V-108H524V-28H375V42L535 262H611V53H661V-28ZM524
54V120Q514 105 503 88T476 54H524Z" />
<glyph unicode="&#xbf;" horiz-adv-x="540" d="M378 659Q378 629 357 607T305 585Q273 585 252 607T230 659Q230 691 251 712T305 733Q336 733 357 712T378 659ZM206 396Q220 419 229 446T238 509Q238 537 265 537H337Q351 537 356 532T362 511Q362 477 357 449T341
395T314 345T277 294Q248 262 229 224T209 153Q209 111 235 90T299 69Q336 69 364 73T426 92Q440 98 450 95T461 75V-4Q461 -20 443 -27Q407 -43 367 -48T290 -54Q245 -54 207 -40T140 0T96 61T80 137Q80 185 90 217T118 274Q140 305 163 334T206 396Z" />
<glyph unicode="&#xc0;" horiz-adv-x="705" d="M563 -54Q552 -54 546 -52T535 -37L472 128H231L168 -37Q163 -49 158 -51T141 -54H44Q28 -54 23 -49T24 -29L280 600Q288 617 304 617H401Q414 617 418 614T427 599L681 -29Q687 -44 683 -49T661 -54H563ZM425 251L352
435L278 251H425ZM406 652Q406 644 395 644H297Q287 644 283 648T270 661L174 775Q169 783 169 784Q169 792 182 792H294Q305 792 310 788T323 775L401 664Q406 656 406 652Z" />
<glyph unicode="&#xc1;" horiz-adv-x="705" d="M563 -54Q552 -54 546 -52T535 -37L472 128H231L168 -37Q163 -49 158 -51T141 -54H44Q28 -54 23 -49T24 -29L280 600Q288 617 304 617H401Q414 617 418 614T427 599L681 -29Q687 -44 683 -49T661 -54H563ZM425 251L352
435L278 251H425ZM281 652Q281 656 286 664L364 775Q371 784 376 788T393 792H505Q518 792 518 784Q518 783 513 775L417 661Q409 652 405 648T390 644H292Q281 644 281 652Z" />
<glyph unicode="&#xc2;" horiz-adv-x="705" d="M563 -54Q552 -54 546 -52T535 -37L472 128H231L168 -37Q163 -49 158 -51T141 -54H44Q28 -54 23 -49T24 -29L280 600Q288 617 304 617H401Q414 617 418 614T427 599L681 -29Q687 -44 683 -49T661 -54H563ZM425 251L352
435L278 251H425ZM166 651Q166 657 170 661L244 778Q251 786 255 789T271 793H431Q442 793 446 790T458 778L531 661Q535 657 535 651Q535 644 526 644H423Q413 644 409 646T399 656L351 726L302 656Q296 649 292 647T278 644H175Q166 644 166 651Z" />
<glyph unicode="&#xc6;" horiz-adv-x="901" d="M466 -56Q442 -56 437 -50T432 -19V127H243L205 -37Q200 -55 185 -55H67Q50 -55 50 -39Q50 -38 50 -37T51 -34L185 515Q194 551 213 571T258 602T311 614T366 617H820Q837 617 839 611T841 593V515Q841 501 838 497T820
492H568V352H807Q823 352 825 346T828 328V250Q828 236 825 232T807 227H568V69H830Q846 69 848 64T851 46V-32Q851 -45 849 -50T830 -56H466ZM332 492Q321 492 318 477L266 244H432V492H332Z" />
<glyph unicode="&#xc7;" horiz-adv-x="552" d="M330 -29Q344 -24 369 -31Q397 -39 412 -56T428 -116Q428 -137 418 -152T389 -177T347 -192T294 -197Q260 -196 233 -186T189 -160L206 -115Q312 -137 318 -100Q323 -47 231 -89L215 -80L247 18Q239 20 231 23T215
29Q133 64 87 133T40 304Q40 374 64 433T131 534T232 600T360 624Q392 624 429 620T499 604Q509 601 510 597T511 580L500 496Q498 483 493 479T472 480Q449 489 417 492T358 495Q320 494 289 480T234 441T198 381T185 304Q185 263 197 233T231 182T283 149T348
133Q383 128 417 131T478 144Q495 150 499 148T504 132L511 48Q506 24 497 20Q491 18 484 15T466 10Q457 8 448 7T427 3Q416 2 395 2T339 1L330 -29Z" />
<glyph unicode="&#xc8;" horiz-adv-x="539" d="M368 652Q368 644 357 644H259Q249 644 245 648T232 661L136 775Q131 783 131 784Q131 792 144 792H256Q267 792 272 788T285 775L363 664Q368 656 368 652ZM94 -56Q70 -56 65 -50T60 -19V582Q60 605 64 611T92 617H448Q465
617 467 611T469 593V515Q469 501 466 497T448 492H196V352H435Q451 352 453 346T456 328V250Q456 236 453 232T435 227H196V69H458Q474 69 476 64T479 46V-32Q479 -45 477 -50T458 -56H94Z" />
<glyph unicode="&#xc9;" horiz-adv-x="539" d="M94 -56H458Q474 -56 476 -51T479 -32V46Q479 59 477 64T458 69H196V227H435Q449 227 452 231T456 250V328Q456 340 454 346T435 352H196V492H448Q463 492 466 496T469 515V593Q469 605 467 611T448 617H92Q69 617
65 611T60 582V-19Q60 -44 65 -50T94 -56ZM200 652Q200 656 205 664L283 775Q290 784 295 788T312 792H424Q437 792 437 784Q437 783 432 775L336 661Q328 652 324 648T309 644H211Q200 644 200 652Z" />
<glyph unicode="&#xca;" horiz-adv-x="539" d="M94 -56Q70 -56 65 -50T60 -19V582Q60 605 64 611T92 617H448Q465 617 467 611T469 593V515Q469 501 466 497T448 492H196V352H435Q451 352 453 346T456 328V250Q456 236 453 232T435 227H196V69H458Q474 69 476
64T479 46V-32Q479 -45 477 -50T458 -56H94ZM83 651Q83 657 87 661L161 778Q168 786 172 789T188 793H348Q359 793 363 790T375 778L448 661Q452 657 452 651Q452 644 443 644H340Q330 644 326 646T316 656L268 726L219 656Q213 649 209 647T195 644H92Q83 644
83 651Z" />
<glyph unicode="&#xcb;" horiz-adv-x="539" d="M94 -56Q70 -56 65 -50T60 -19V582Q60 605 64 611T92 617H448Q465 617 467 611T469 593V515Q469 501 466 497T448 492H196V352H435Q451 352 453 346T456 328V250Q456 236 453 232T435 227H196V69H458Q474 69 476
64T479 46V-32Q479 -45 477 -50T458 -56H94ZM98 719Q98 750 118 771T169 792Q199 792 220 771T241 719Q241 688 220 667T169 646Q139 646 119 665T98 719ZM292 719Q292 750 312 771T363 792Q393 792 414 771T435 719Q435 688 414 667T363 646Q333 646 313 664T292
719Z" />
<glyph unicode="&#xcd;" horiz-adv-x="438" d="M171 -55Q160 -55 156 -51T151 -35V587Q151 607 171 607H267Q287 607 287 587V-35Q287 -47 283 -51T267 -55H171ZM158 652Q158 656 163 664L241 775Q248 784 253 788T270 792H382Q395 792 395 784Q395 783 390 775L294
661Q286 652 282 648T267 644H169Q158 644 158 652Z" />
<glyph unicode="&#xce;" horiz-adv-x="469" d="M187 -55Q176 -55 172 -51T167 -35V597Q167 617 187 617H283Q303 617 303 597V-35Q303 -47 299 -51T283 -55H187ZM50 651Q50 657 54 661L128 778Q135 786 139 789T155 793H315Q326 793 330 790T342 778L415 661Q419
657 419 651Q419 644 410 644H307Q297 644 293 646T283 656L235 726L186 656Q180 649 176 647T162 644H59Q50 644 50 651Z" />
<glyph unicode="&#xcf;" horiz-adv-x="438" d="M171 -55Q160 -55 156 -51T151 -35V597Q151 617 171 617H267Q287 617 287 597V-35Q287 -47 283 -51T267 -55H171ZM51 719Q51 750 71 771T122 792Q152 792 173 771T194 719Q194 688 173 667T122 646Q92 646 71 667T51
719ZM245 719Q245 750 265 771T316 792Q346 792 367 771T388 719Q388 688 367 667T316 646Q286 646 265 667T245 719Z" />
<glyph unicode="&#xd0;" horiz-adv-x="794" d="M603 318Q603 381 594 425T561 498T499 539T401 552H305V398H391V302H305V84H401Q460 84 499 97T561 138T593 210T603 318ZM735 318Q735 130 656 45T414 -41H171V302H59V398H171V677H414Q577 677 656 591T735 318Z" />
<glyph unicode="&#xd1;" horiz-adv-x="727" d="M530 -55Q518 -55 515 -53T504 -39L215 388V-31Q215 -47 212 -51T193 -55H102Q87 -55 83 -51T79 -31V590Q79 607 82 612T104 617H203Q215 617 218 614T230 598L515 175V593Q515 608 518 612T537 617H627Q645 617
648 612T651 593V-27Q651 -46 647 -50T625 -55H530ZM189 701Q186 707 189 715Q213 761 240 776T291 794Q317 796 334 789T373 763Q389 749 399 742T427 736Q441 738 452 748T472 787Q474 789 476 791T483 789L538 738Q545 730 542 720Q525 668 497 647T443 624Q418
622 400 629T362 654Q348 665 336 673T304 681Q297 680 291 679T278 672T266 658T254 633Q252 624 244 632L189 701Z" />
<glyph unicode="&#xd3;" horiz-adv-x="687" d="M637 274Q637 205 621 143T569 32T478 -44T344 -72Q266 -72 211 -44T120 32T67 142T50 274Q50 341 67 403T121 513T212 589T344 618Q419 618 474 590T566 513T619 403T637 274ZM344 486Q303 486 274 468T227 420T199
352T190 274Q190 234 199 196T226 127T274 78T344 59Q384 59 412 77T459 126T487 195T496 274Q496 312 488 350T461 418T413 467T344 486ZM241 652Q241 656 246 664L324 775Q331 784 336 788T353 792H465Q478 792 478 784Q478 783 473 775L377 661Q369 652 365
648T350 644H252Q241 644 241 652Z" />
<glyph unicode="&#xd4;" horiz-adv-x="687" d="M167 651Q167 657 171 661L245 778Q252 786 256 789T272 793H432Q443 793 447 790T459 778L532 661Q536 657 536 651Q536 644 527 644H424Q414 644 410 646T400 656L352 726L303 656Q297 649 293 647T279 644H176Q167
644 167 651ZM637 274Q637 205 621 143T569 32T478 -44T344 -72Q266 -72 211 -44T120 32T67 142T50 274Q50 341 67 403T121 513T212 589T344 618Q419 618 474 590T566 513T619 403T637 274ZM344 486Q303 486 274 468T227 420T199 352T190 274Q190 234 199 196T226
127T274 78T344 59Q384 59 412 77T459 126T487 195T496 274Q496 312 488 350T461 418T413 467T344 486Z" />
<glyph unicode="&#xd7;" horiz-adv-x="592" d="M507 59Q490 43 471 59L296 234Q252 191 208 147T119 58Q98 40 84 58Q74 68 64 79T43 100Q35 108 35 118T43 137L218 312Q176 354 134 396T50 480Q32 498 50 515L92 558Q110 578 129 558H128Q172 515 212 475T297
391Q340 433 382 476T468 561Q476 568 486 568T504 561L543 519Q550 511 550 501T543 482L374 312Q419 267 461 225T548 137Q563 120 548 102L507 59Z" />
<glyph unicode="&#xd8;" horiz-adv-x="780" d="M579 318Q579 416 544 478Q486 377 430 281T315 84Q348 69 390 69Q479 69 529 135T579 318ZM477 546Q458 557 437 562T390 567Q301 567 251 501T201 318Q201 211 244 145L477 546ZM713 318Q713 228 688 159T620 42T517
-30T390 -55Q352 -55 318 -49T252 -26Q233 -59 212 -95T173 -163L93 -118L176 25Q126 73 97 146T67 318Q67 408 92 477T160 594T263 666T390 691Q432 691 469 683T540 655Q555 682 572 711T605 767L685 722L614 599Q660 551 686 482T713 318Z" />
<glyph unicode="&#xd9;" horiz-adv-x="662" d="M515 -12Q439 -71 331 -71Q277 -71 232 -57T149 -12Q97 30 74 89T50 224V595Q50 604 53 610T70 617H166Q186 617 186 597V214Q186 141 223 98T331 54Q403 54 439 96T476 214V597Q476 617 496 617H592Q605 617 608
611T612 595V224Q612 149 588 89T515 -12ZM404 652Q404 644 393 644H295Q285 644 281 648T268 661L172 775Q167 783 167 784Q167 792 180 792H292Q303 792 308 788T321 775L399 664Q404 656 404 652Z" />
<glyph unicode="&#xda;" horiz-adv-x="662" d="M515 -12Q439 -71 331 -71Q277 -71 232 -57T149 -12Q97 30 74 89T50 224V595Q50 604 53 610T70 617H166Q186 617 186 597V214Q186 141 223 98T331 54Q403 54 439 96T476 214V597Q476 617 496 617H592Q605 617 608
611T612 595V224Q612 149 588 89T515 -12ZM241 652Q241 656 246 664L324 775Q331 784 336 788T353 792H465Q478 792 478 784Q478 783 473 775L377 661Q369 652 365 648T350 644H252Q241 644 241 652Z" />
<glyph unicode="&#xdb;" horiz-adv-x="662" d="M515 -12Q439 -71 331 -71Q277 -71 232 -57T149 -12Q97 30 74 89T50 224V595Q50 604 53 610T70 617H166Q186 617 186 597V214Q186 141 223 98T331 54Q403 54 439 96T476 214V597Q476 617 496 617H592Q605 617 608
611T612 595V224Q612 149 588 89T515 -12ZM146 651Q146 657 150 661L224 778Q231 786 235 789T251 793H411Q422 793 426 790T438 778L511 661Q515 657 515 651Q515 644 506 644H403Q393 644 389 646T379 656L331 726L282 656Q276 649 272 647T258 644H155Q146 644
146 651Z" />
<glyph unicode="&#xdc;" horiz-adv-x="662" d="M515 -12Q439 -71 331 -71Q277 -71 232 -57T149 -12Q97 30 74 89T50 224V595Q50 604 53 610T70 617H166Q186 617 186 597V214Q186 141 223 98T331 54Q403 54 439 96T476 214V597Q476 617 496 617H592Q605 617 608
611T612 595V224Q612 149 588 89T515 -12ZM163 719Q163 750 183 771T234 792Q264 792 285 771T306 719Q306 688 285 667T234 646Q204 646 183 667T163 719ZM357 719Q357 750 377 771T428 792Q458 792 479 771T500 719Q500 688 479 667T428 646Q398 646 377 667T357
719Z" />
<glyph unicode="&#xde;" horiz-adv-x="530" d="M189 177Q261 185 303 223T346 330Q346 357 334 381T300 423T251 451T189 463V177ZM474 320Q474 254 449 206T383 127T292 80T190 62V-41H56V677H189V577Q240 575 291 560T382 513T448 434T474 320Z" />
<glyph unicode="&#xdf;" horiz-adv-x="657" d="M334 119Q347 119 353 114T360 95Q362 67 378 55T418 43Q444 43 463 69T483 143Q483 183 468 209T428 250T367 271T293 277Q270 277 270 300V371Q270 382 276 388T296 395Q368 395 399 423T431 494Q431 531 405 555T312
580H267Q247 580 233 570T218 533V-36Q218 -55 197 -55H116Q94 -55 94 -36V533Q94 574 106 605T140 656T191 687T256 698H344Q387 698 425 686T492 650T538 589T555 502Q555 397 479 340Q534 314 569 266T605 149Q605 40 560 -17T416 -75Q331 -75 284 -33T236 93Q237
119 261 119H334Z" />
<glyph unicode="&#xe0;" horiz-adv-x="549" d="M390 -57Q381 -57 379 -55T376 -43V0Q367 -14 353 -25T321 -46T283 -60T244 -65Q200 -66 165 -54T104 -18T64 41T50 120Q50 172 74 214T141 279Q225 328 366 320Q360 399 298 407Q258 411 218 397T148 364Q127 350
118 350T109 370V453Q109 466 111 471T126 483Q156 498 196 511T292 524Q395 524 445 472T495 311V83Q495 70 495 54T495 23T496 -7T498 -33Q500 -53 496 -55T482 -57H390ZM376 219Q319 218 282 211T223 190T193 159T184 119Q184 87 203 70T256 52Q310 52 342 91T376
219ZM369 579Q369 571 358 571H260Q250 571 246 575T233 588L137 702Q132 710 132 711Q132 719 145 719H257Q268 719 273 715T286 702L364 591Q369 583 369 579Z" />
<glyph unicode="&#xe1;" horiz-adv-x="549" d="M390 -57Q381 -57 379 -55T376 -43V0Q367 -14 353 -25T321 -46T283 -60T244 -65Q200 -66 165 -54T104 -18T64 41T50 120Q50 172 74 214T141 279Q225 328 366 320Q360 399 298 407Q258 411 218 397T148 364Q127 350
118 350T109 370V453Q109 466 111 471T126 483Q156 498 196 511T292 524Q395 524 445 472T495 311V83Q495 70 495 54T495 23T496 -7T498 -33Q500 -53 496 -55T482 -57H390ZM376 219Q319 218 282 211T223 190T193 159T184 119Q184 87 203 70T256 52Q310 52 342 91T376
219ZM213 579Q213 583 218 591L296 702Q303 711 308 715T325 719H437Q450 719 450 711Q450 710 445 702L349 588Q341 579 337 575T322 571H224Q213 571 213 579Z" />
<glyph unicode="&#xe2;" horiz-adv-x="549" d="M390 -57Q381 -57 379 -55T376 -43V0Q367 -14 353 -25T321 -46T283 -60T244 -65Q200 -66 165 -54T104 -18T64 41T50 120Q50 172 74 214T141 279Q225 328 366 320Q360 399 298 407Q258 411 218 397T148 364Q127 350
118 350T109 370V453Q109 466 111 471T126 483Q156 498 196 511T292 524Q395 524 445 472T495 311V83Q495 70 495 54T495 23T496 -7T498 -33Q500 -53 496 -55T482 -57H390ZM376 219Q319 218 282 211T223 190T193 159T184 119Q184 87 203 70T256 52Q310 52 342 91T376
219ZM90 578Q90 584 94 588L168 704Q175 712 179 715T195 719H355Q366 719 370 716T382 704L455 588Q459 584 459 578Q459 571 450 571H347Q337 571 333 573T323 583L275 653L226 583Q220 576 216 574T202 571H99Q90 571 90 578Z" />
<glyph unicode="&#xe4;" horiz-adv-x="532" d="M389 -49Q382 -49 380 -48T378 -40V5Q353 -30 315 -47T237 -65Q196 -65 162 -54T103 -21T64 33T50 109Q50 160 68 198T124 262T223 300T368 313Q368 332 364 351T351 385T324 409T281 419Q236 419 200 407T131 375Q115
365 110 366T104 377V453Q104 457 104 461T105 469Q107 473 120 480Q154 497 189 508T279 519Q382 519 429 471T477 316V79Q477 51 477 21T481 -33Q482 -49 470 -49H389ZM164 110Q164 72 186 53T245 34Q302 34 336 75T371 207V218Q260 218 212 191T164 110ZM106
644Q106 675 126 696T177 717Q207 717 228 696T249 644Q249 613 228 592T177 571Q147 571 126 592T106 644ZM300 644Q300 675 320 696T371 717Q401 717 422 696T443 644Q443 613 422 592T371 571Q341 571 320 592T300 644Z" />
<glyph unicode="&#xe6;" horiz-adv-x="921" d="M470 454Q481 467 495 477T525 498Q571 524 632 524Q695 524 738 501T809 439T849 349T861 239V206Q860 194 856 188T839 181H526Q533 114 568 82T653 48Q699 46 733 57T800 88Q814 97 819 93T824 72V-3Q824 -14
822 -18T810 -29Q781 -49 737 -59T649 -69Q589 -69 541 -50T460 8L457 11Q441 -6 423 -19Q390 -43 348 -54T254 -65Q210 -66 175 -54T114 -18T74 41T60 120Q60 172 84 214T151 279Q235 328 376 320Q370 399 308 407Q268 411 228 397T158 364Q137 350 128 350T119
370V453Q119 466 121 471T136 483Q166 498 206 511T302 524Q406 524 455 472Q462 464 470 454ZM386 219Q329 218 292 211T233 190T203 159T194 119Q194 87 213 70T266 52Q320 52 352 91T386 219ZM635 408Q615 408 597 399T564 373T541 335T528 291H731Q731 311
725 332T707 370T677 397T635 408Z" />
<glyph unicode="&#xe7;" horiz-adv-x="518" d="M222 14Q157 34 117 72Q50 133 50 257Q50 321 70 370T126 453T214 503T329 520Q358 520 392 516T456 502Q465 499 466 495T467 480L457 403Q455 391 451 387T431 388Q410 396 380 399T327 402Q258 400 221 368T183
257Q183 220 192 195T218 155T261 131T318 120Q350 117 381 119T437 130Q453 135 456 133T461 119L467 42Q468 30 466 26T454 16Q437 8 409 3T350 -2Q340 -3 331 -3T314 -1L306 -29Q315 -27 330 -29T360 -40T385 -67T394 -116Q394 -158 361 -177T270 -197Q236 -196
209 -186T165 -160L182 -115Q288 -137 294 -100Q299 -47 207 -89L191 -80L222 14Z" />
<glyph unicode="&#xe8;" horiz-adv-x="571" d="M521 206Q520 194 516 188T499 181H186Q193 114 228 82T313 48Q359 46 393 57T460 88Q474 97 479 93T484 72V-3Q484 -14 482 -18T470 -29Q441 -49 397 -59T309 -69Q249 -69 201 -50T120 8T68 101T50 227Q50 280 64
333T109 428T184 497T292 524Q355 524 398 501T469 439T509 349T521 239V206ZM295 408Q275 408 257 399T224 373T201 335T188 291H391Q391 311 385 332T367 370T337 397T295 408ZM371 579Q371 571 360 571H262Q252 571 248 575T235 588L139 702Q134 710 134 711Q134
719 147 719H259Q270 719 275 715T288 702L366 591Q371 583 371 579Z" />
<glyph unicode="&#xe9;" horiz-adv-x="571" d="M521 206V239Q521 297 509 348T470 439T399 501T292 524Q230 524 185 498T109 429T65 333T50 227Q50 156 68 101T119 8T201 -49T309 -69Q352 -69 396 -59T470 -29Q479 -22 481 -18T484 -3V72Q484 89 479 93T460 88Q428
68 394 57T313 48Q264 50 229 82T186 181H499Q511 181 515 187T521 206ZM295 408Q319 408 337 398T367 370T385 332T391 291H188Q191 314 200 335T224 372T256 398T295 408ZM231 579Q231 583 236 591L314 702Q321 711 326 715T343 719H455Q468 719 468 711Q468
710 463 702L367 588Q359 579 355 575T340 571H242Q231 571 231 579Z" />
<glyph unicode="&#xea;" horiz-adv-x="571" d="M521 206Q520 194 516 188T499 181H186Q193 114 228 82T313 48Q359 46 393 57T460 88Q474 97 479 93T484 72V-3Q484 -14 482 -18T470 -29Q441 -49 397 -59T309 -69Q249 -69 201 -50T120 8T68 101T50 227Q50 280 64
333T109 428T184 497T292 524Q355 524 398 501T469 439T509 349T521 239V206ZM295 408Q275 408 257 399T224 373T201 335T188 291H391Q391 311 385 332T367 370T337 397T295 408ZM107 578Q107 584 111 588L185 704Q192 712 196 715T212 719H372Q383 719 387 716T399
704L472 588Q476 584 476 578Q476 571 467 571H364Q354 571 350 573T340 583L292 653L243 583Q237 576 233 574T219 571H116Q107 571 107 578Z" />
<glyph unicode="&#xeb;" horiz-adv-x="571" d="M521 206Q520 194 516 188T499 181H186Q193 114 228 82T313 48Q359 46 393 57T460 88Q474 97 479 93T484 72V-3Q484 -14 482 -18T470 -29Q441 -49 397 -59T309 -69Q249 -69 201 -50T120 8T68 101T50 227Q50 280 64
333T109 428T184 497T292 524Q355 524 398 501T469 439T509 349T521 239V206ZM295 408Q275 408 257 399T224 373T201 335T188 291H391Q391 311 385 332T367 370T337 397T295 408ZM124 644Q124 675 144 696T195 717Q225 717 246 696T267 644Q267 613 246 592T195
571Q165 571 144 592T124 644ZM318 644Q318 675 338 696T389 717Q419 717 440 696T461 644Q461 613 440 592T389 571Q359 571 338 592T318 644Z" />
<glyph unicode="&#xed;" horiz-adv-x="452" d="M166 -55Q157 -55 154 -51T150 -35V486Q150 498 153 502T166 506H265Q275 506 278 502T282 486V-35Q282 -47 279 -51T265 -55H166ZM155 579Q155 583 160 591L238 702Q245 711 250 715T267 719H379Q392 719 392 711Q392
710 387 702L291 588Q283 579 279 575T264 571H166Q155 571 155 579Z" />
<glyph unicode="&#xee;" horiz-adv-x="469" d="M185 -55Q176 -55 173 -51T169 -35V486Q169 498 172 502T185 506H284Q294 506 297 502T301 486V-35Q301 -47 298 -51T284 -55H185ZM50 578Q50 584 54 588L128 704Q135 712 139 715T155 719H315Q326 719 330 716T342
704L415 588Q419 584 419 578Q419 571 410 571H307Q297 571 293 573T283 583L235 653L186 583Q180 576 176 574T162 571H59Q50 571 50 578Z" />
<glyph unicode="&#xef;" horiz-adv-x="438" d="M169 -55Q160 -55 157 -51T153 -35V486Q153 498 156 502T169 506H268Q278 506 281 502T285 486V-35Q285 -47 282 -51T268 -55H169ZM51 644Q51 675 71 696T122 717Q152 717 173 696T194 644Q194 613 173 592T122 571Q92
571 71 592T51 644ZM245 644Q245 675 265 696T316 717Q346 717 367 696T388 644Q388 613 367 592T316 571Q286 571 265 592T245 644Z" />
<glyph unicode="&#xf0;" horiz-adv-x="592" d="M537 218Q537 153 518 102T466 16T389 -37T296 -55Q247 -55 203 -38T126 13T74 98T55 217Q55 285 74 335T126 419T203 469T296 486Q313 486 328 484T360 477Q358 497 349 512T332 542Q321 531 309 519T287 498L231
554L280 603Q265 617 249 630T215 654L251 712Q306 688 342 663L395 713L452 659L404 612Q442 575 467 532T508 438T530 333T537 218ZM408 217Q408 297 379 333T296 369Q244 369 214 333T184 217Q184 137 214 101T296 64Q348 64 378 100T408 217Z" />
<glyph unicode="&#xf1;" horiz-adv-x="606" d="M209 -35Q209 -47 205 -51T190 -55H97Q85 -55 81 -50T77 -34V357Q77 395 77 434T75 493Q73 504 77 507T95 510H190Q201 510 204 508T207 497V459Q228 481 261 499T330 518Q430 518 476 461T523 295V-35Q523 -47 519
-51T504 -55H411Q391 -55 391 -34V275Q391 396 318 396Q267 396 238 363T209 273V-35ZM104 626Q101 632 104 640Q128 686 155 701T206 719Q232 721 249 714T288 688Q304 674 314 667T342 661Q356 663 367 673T387 712Q389 714 391 716T398 714L453 663Q460 655
457 645Q440 593 412 572T358 549Q333 547 315 554T277 579Q263 590 251 598T219 606Q212 605 206 604T193 597T181 583T169 558Q167 549 159 557L104 626Z" />
<glyph unicode="&#xf3;" horiz-adv-x="633" d="M583 226Q583 166 566 112T515 18T431 -47T316 -71Q250 -71 201 -47T118 17T67 112T50 226Q50 286 66 340T116 434T200 498T316 522Q382 522 432 498T515 434T566 340T583 226ZM316 405Q283 405 258 390T217 349T192
292T183 226Q183 192 191 160T216 103T258 62T316 46Q350 46 375 61T416 102T441 160T449 226Q449 259 441 291T417 348T375 389T316 405ZM262 579Q262 583 267 591L345 702Q352 711 357 715T374 719H486Q499 719 499 711Q499 710 494 702L398 588Q390 579 386
575T371 571H273Q262 571 262 579Z" />
<glyph unicode="&#xf4;" horiz-adv-x="633" d="M583 226Q583 166 566 112T515 18T431 -47T316 -71Q250 -71 201 -47T118 17T67 112T50 226Q50 286 66 340T116 434T200 498T316 522Q382 522 432 498T515 434T566 340T583 226ZM316 405Q283 405 258 390T217 349T192
292T183 226Q183 192 191 160T216 103T258 62T316 46Q350 46 375 61T416 102T441 160T449 226Q449 259 441 291T417 348T375 389T316 405ZM132 578Q132 584 136 588L210 704Q217 712 221 715T237 719H397Q408 719 412 716T424 704L497 588Q501 584 501 578Q501
571 492 571H389Q379 571 375 573T365 583L317 653L268 583Q262 576 258 574T244 571H141Q132 571 132 578Z" />
<glyph unicode="&#xf6;" horiz-adv-x="633" d="M583 226Q583 166 566 112T515 18T431 -47T316 -71Q250 -71 201 -47T118 17T67 112T50 226Q50 286 66 340T116 434T200 498T316 522Q382 522 432 498T515 434T566 340T583 226ZM316 405Q283 405 258 390T217 349T192
292T183 226Q183 192 191 160T216 103T258 62T316 46Q350 46 375 61T416 102T441 160T449 226Q449 259 441 291T417 348T375 389T316 405ZM145 644Q145 675 165 696T216 717Q246 717 267 696T288 644Q288 613 267 592T216 571Q186 571 165 592T145 644ZM339 644Q339
675 359 696T410 717Q440 717 461 696T482 644Q482 613 461 592T410 571Q380 571 359 592T339 644Z" />
<glyph unicode="&#xf7;" horiz-adv-x="650" d="M323 598Q359 598 382 576T405 518Q405 483 382 461T324 438Q288 438 266 460T243 518Q243 553 265 575T323 598ZM323 188Q359 188 382 166T405 109Q405 73 382 51T324 28Q288 28 266 50T243 109Q243 143 265 165T323
188ZM614 280Q614 258 590 258H60Q36 258 36 280V342Q36 365 60 365H590Q614 365 614 342V280Z" />
<glyph unicode="&#xf8;" horiz-adv-x="612" d="M418 222Q418 282 399 323Q368 256 340 195T280 66Q286 64 292 64T306 64Q360 64 389 103T418 222ZM332 377Q326 379 320 379T306 379Q254 379 224 341T194 222Q194 188 198 164T213 120L332 377ZM547 222Q547 154
529 102T479 15T403 -37T306 -55Q286 -55 267 -53T228 -44Q217 -67 205 -98T181 -152L106 -117L155 -5Q113 30 89 87T65 222Q65 290 83 341T133 428T209 481T306 499Q345 499 384 487Q393 508 405 532T426 577L501 543L457 448Q500 413 523 357T547 222Z" />
<glyph unicode="&#xf9;" horiz-adv-x="567" d="M398 -57Q387 -57 384 -54T380 -43V-5Q371 -19 357 -30T325 -50T290 -63T256 -68Q156 -68 108 -11T60 155V487Q60 498 64 503T79 508H171Q183 508 187 502T191 486V172Q191 103 212 79T269 54Q314 54 344 88T374
196V487Q374 498 378 503T393 508H486Q498 508 501 501T505 485V84Q505 54 506 22T507 -36Q507 -49 505 -53T488 -57H398ZM364 579Q364 571 353 571H255Q245 571 241 575T228 588L132 702Q127 710 127 711Q127 719 140 719H252Q263 719 268 715T281 702L359 591Q364
583 364 579Z" />
<glyph unicode="&#xfa;" horiz-adv-x="567" d="M398 -57Q387 -57 384 -54T380 -43V-5Q371 -19 357 -30T325 -50T290 -63T256 -68Q156 -68 108 -11T60 155V487Q60 498 64 503T79 508H171Q183 508 187 502T191 486V172Q191 103 212 79T269 54Q314 54 344 88T374
196V487Q374 498 378 503T393 508H486Q498 508 501 501T505 485V84Q505 54 506 22T507 -36Q507 -49 505 -53T488 -57H398ZM195 579Q195 583 200 591L278 702Q285 711 290 715T307 719H419Q432 719 432 711Q432 710 427 702L331 588Q323 579 319 575T304 571H206Q195
571 195 579Z" />
<glyph unicode="&#xfb;" horiz-adv-x="567" d="M398 -57Q387 -57 384 -54T380 -43V-5Q371 -19 357 -30T325 -50T290 -63T256 -68Q156 -68 108 -11T60 155V487Q60 498 64 503T79 508H171Q183 508 187 502T191 486V172Q191 103 212 79T269 54Q314 54 344 88T374
196V487Q374 498 378 503T393 508H486Q498 508 501 501T505 485V84Q505 54 506 22T507 -36Q507 -49 505 -53T488 -57H398ZM98 578Q98 584 102 588L176 704Q183 712 187 715T203 719H363Q374 719 378 716T390 704L463 588Q467 584 467 578Q467 571 458 571H355Q345
571 341 573T331 583L283 653L234 583Q228 576 224 574T210 571H107Q98 571 98 578Z" />
<glyph unicode="&#xfc;" horiz-adv-x="567" d="M398 -57Q387 -57 384 -54T380 -43V-5Q371 -19 357 -30T325 -50T290 -63T256 -68Q156 -68 108 -11T60 155V487Q60 498 64 503T79 508H171Q183 508 187 502T191 486V172Q191 103 212 79T269 54Q314 54 344 88T374
196V487Q374 498 378 503T393 508H486Q498 508 501 501T505 485V84Q505 54 506 22T507 -36Q507 -49 505 -53T488 -57H398ZM115 644Q115 675 135 696T186 717Q216 717 237 696T258 644Q258 613 237 592T186 571Q156 571 135 592T115 644ZM309 644Q309 675 329 696T380
717Q410 717 431 696T452 644Q452 613 431 592T380 571Q350 571 329 592T309 644Z" />
<glyph unicode="&#xfe;" horiz-adv-x="599" d="M389 222Q389 302 361 340T278 379Q236 379 209 355V87Q222 76 240 70T278 64Q332 64 360 103T389 222ZM519 222Q519 154 501 102T451 15T375 -37T278 -55Q258 -55 241 -53T209 -45V-144H80V677H209V488Q237 499
278 499Q330 499 374 481T451 428T501 342T519 222Z" />
<glyph unicode="&#x2013;" horiz-adv-x="410" d="M359 257H51V369H359V257Z" />
<glyph unicode="&#x2014;" horiz-adv-x="864" d="M862 260H2V367H862V260Z" />
<glyph unicode="&#x2018;" horiz-adv-x="185" d="M96 488Q69 488 49 509T26 564Q24 599 32 625T54 674Q67 696 90 715T136 743Q148 747 151 744T154 732V679Q154 672 153 670T148 666Q140 662 130 651T114 623Q132 618 148 602T164 562Q164 528 146 508T96 488Z" />
<glyph unicode="&#x2019;" horiz-adv-x="185" d="M88 737Q115 737 135 716T158 661Q160 626 152 600T130 551Q117 529 94 510T48 482Q36 478 33 481T30 493V546Q30 553 31 555T36 559Q44 563 54 574T70 602Q52 607 36 623T20 663Q20 697 38 717T88 737Z" />
<glyph unicode="&#x201c;" horiz-adv-x="350" d="M106 488Q79 488 59 509T36 564Q34 599 42 625T64 674Q77 696 100 715T146 743Q158 747 161 744T164 732V679Q164 672 163 670T158 666Q150 662 140 651T124 623Q142 618 158 602T174 562Q174 528 156 508T106
488ZM262 488Q235 488 215 509T192 564Q190 599 198 625T220 674Q233 696 256 715T302 743Q314 747 317 744T320 732V679Q320 672 319 670T314 666Q306 662 296 651T280 623Q298 618 314 602T330 562Q330 528 312 508T262 488Z" />
<glyph unicode="&#x201d;" horiz-adv-x="350" d="M246 737Q273 737 293 716T316 661Q318 626 310 600T288 551Q275 529 252 510T206 482Q194 478 191 481T188 493V546Q188 553 189 555T194 559Q202 563 212 574T228 602Q210 607 194 623T178 663Q178 697 196 717T246
737ZM90 737Q117 737 137 716T160 661Q162 626 154 600T132 551Q119 529 96 510T50 482Q38 478 35 481T32 493V546Q32 553 33 555T38 559Q46 563 56 574T72 602Q54 607 38 623T22 663Q22 697 40 717T90 737Z" />
<glyph unicode="&#x2022;" horiz-adv-x="940" d="M588 306Q588 282 579 261T553 224T515 199T470 190Q446 190 425 199T388 223T362 260T352 306Q352 330 361 351T387 388T425 414T470 424Q494 424 515 415T552 389T578 351T588 306Z" />
<glyph unicode="&#x2039;" horiz-adv-x="940" d="M823 -137L106 301L823 739V682L211 302Q363 208 517 113T823 -77V-137Z" />
<glyph unicode="&#x203a;" horiz-adv-x="940" d="M833 301L116 -137V-77L728 302Q576 397 422 492T116 682V739L833 301Z" />
</font>
</defs>
</svg>
